Free Tools CueDump

CueDump v1.1 2023-04-25

Download CueDump (0.1 MB)

To unit test our CueSheet Parser, we wrote this utility.

Features:

Usage:
cuedump [.cue file] ...

Example:

D:\>cuedump "D:\iso\cue_multifile\Various Artists.cue"
cuedump D:\iso\cue_multifile\Various Artists.cue


.cue Content:
--------------------------------
TITLE "くつろぎの音楽"
FILE "01. チェン_ミン_燕になりたい.wav" WAVE
  TRACK 01 AUDIO
    TITLE "チェン?ミン/燕になりたい"
    INDEX 01 00:00:00
  TRACK 02 AUDIO
    TITLE "ヌーノ/アマポーラ"
    INDEX 00 04:26:25
FILE "02. ヌーノ_アマポーラ.wav" WAVE
    INDEX 01 00:00:00
  TRACK 03 AUDIO
    TITLE "小林桂/イースト?オブ?ザ?サン"
    INDEX 00 03:58:60
FILE "03. 小林桂_イースト_オブ_ザ_サン.wav" WAVE
    INDEX 01 00:00:00
  TRACK 04 AUDIO
    TITLE "小原孝/いつまでも"
    INDEX 00 03:38:12
FILE "04. 小原孝_いつまでも.wav" WAVE
    INDEX 01 00:00:00
  TRACK 05 AUDIO
    TITLE "アヴェマリア/キーディー"
    INDEX 00 04:37:15
FILE "05. アヴェマリア_キーディー.wav" WAVE
    INDEX 01 00:00:00
  TRACK 06 AUDIO
    TITLE "中丸三千繪/私を泣かせて下さい"
    INDEX 00 04:15:40
FILE "06. 中丸三千繪_私を泣かせて下さい.wav" WAVE
    INDEX 01 00:00:00


CD Layout:
--------------------------------
Session 1
 File    Track    Index      AbsolutePosition        RelativePosition             Length
  1        1        1        00:00:00       0        00:00:00       0        04:26:25   19975
  2        2        0        04:26:25   19975        04:26:25   19975        00:01:05      80
  2        2        1        04:27:30   20055        00:00:00       0        03:58:60   17910
  3        3        0        08:26:15   37965        03:58:60   17910        00:01:05      80
  3        3        1        08:27:20   38045        00:00:00       0        03:38:12   16362
  4        4        0        12:05:32   54407        03:38:12   16362        00:01:05      80
  4        4        1        12:06:37   54487        00:00:00       0        04:37:15   20790
  5        5        0        16:43:52   75277        04:37:15   20790        00:01:05      80
  5        5        1        16:44:57   75357        00:00:00       0        04:15:40   19165
  6        6        0        21:00:22   94522        04:15:40   19165        00:01:05      80
  6        6        1        21:01:27   94602        00:00:00       0        04:23:50   19775
LeadOut    -        -        25:25:02  114377


Files:
--------------------------------
1 01. チェン_ミン_燕になりたい.wav
2 02. ヌーノ_アマポーラ.wav
3 03. 小林桂_イースト_オブ_ザ_サン.wav
4 04. 小原孝_いつまでも.wav
5 05. アヴェマリア_キーディー.wav
6 06. 中丸三千繪_私を泣かせて下さい.wav


CDTEXT:
--------------------------------
80: Track0 くつろぎの音楽
    HEX=A4AFA4C4A4EDA4AEA4CED2F49853
80: Track1 チェン?ミン/燕になりたい
    HEX=A5C1A5A7A5F33FA5DFA5F32FD1E0A4CBA4CAA4EAA4BFA4A4
80: Track2 ヌーノ/アマポーラ
    HEX=A5CCA960A5CE2FA5A2A5DEA5DDA960A5E9
80: Track3 小林桂/イースト?オブ?ザ?サン
    HEX=D0A1C1D6B9F02FA5A4A960A5B9A5C83FA5AAA5D63FA5B63FA5B5A5F3
80: Track4 小原孝/いつまでも
    HEX=D0A1D4ADD0A22FA4A4A4C4A4DEA4C7A4E2
80: Track5 アヴェマリア/キーディー
    HEX=A5A2A5F4A5A7A5DEA5EAA5A22FA5ADA960A5C7A5A3A960
80: Track6 中丸三千繪/私を泣かせて下さい
    HEX=D6D0CDE8C8FDC7A7C04C2FCBBDA4F2C6FCA4ABA4BBA4C6CFC2A4B5A4A4

ChangeLog:

Version 1.1 2023-04-25

Version 1.0 2023-04-24